#TITLE:Necropotence;
#SUBTITLE:;
#ARTIST:T+pazolite;
#TITLETRANSLIT:;
#SUBTITLETRANSLIT:;
#ARTISTTRANSLIT:;
#CREDIT:;
#BANNER:Necropotence-bann.jpg;
#BACKGROUND:Necropotence-bg.jpg;
#LYRICSPATH:;
#CDTITLE:cdtitle.png;
#MUSIC:Necropotence.ogg;
#OFFSET:-1.140;
#SAMPLESTART:9.776;
#SAMPLELENGTH:17.290;
#SELECTABLE:YES;
#BPMS:0.000=444.000,776.000=222.003,840.000=444.000,972.000=887.996,1236.000=444.000;
#STOPS:;
#BGCHANGES:972.000=Necropotence2-bg.jpg=1.000=0=0=1,
1236.000=Necropotence-bg.jpg=1.000=0=0=1,
99999=-nosongbg-=1.000=0=0=0 // don't automatically add -songbackground-
;
// cache tags:
#FIRSTBEAT:0.000;
#LASTBEAT:1428.000;
#SONGFILENAME:Songs/New Folder/necropotence/Necropotence.sm;
#HASMUSIC:1;
#HASBANNER:1;
#MUSICLENGTH:186.398;
// end cache tags

//---------------dance-single - ----------------
#NOTES:
     dance-single:
     :
     Challenge:
     20:
     1.000,1.000,1.000,0.064,0.255,1667.000,1667.000,12.000,0.000,6.000:
1001
0101
0110
1010
,
0101
0110
1010
0101
,
0011
1001
0011
1010
,
1100
0000
0011
0000
0110
0000
1100
0011
,
1100
0110
0101
0110
,
1010
1100
0011
0101
,
1001
0101
1100
0000
0101
0000
1001
1010
,
0011
1100
0011
0000
0110
0000
1001
0000
0011
1100
0011
1100
0011
1100
0011
1100
,
0011
1010
1100
0101
,
0011
1100
1010
0110
,
1100
1001
1010
1100
,
1010
0000
0011
0000
0101
0000
1100
0011
,
0110
1010
0101
0110
,
1001
1010
0110
1001
,
0022
0000
0000
0000
,
1133
0000
0110
0000
0011
0000
1010
0000
1100
0011
1100
0011
1100
0011
1100
0011
,
1100
1010
0101
1100
,
0011
1001
0110
1010
,
0110
0011
1001
0101
,
1010
0000
0011
0000
0101
0000
1001
1100
,
0110
1100
0110
0011
,
1001
1100
1010
0110
,
0110
0101
1010
0000
0011
0000
0101
1010
,
1100
0000
0011
0000
1010
0000
0101
0000
1001
0110
1001
0110
1001
0110
1001
0110
,
1001
1100
0101
1010
,
0110
1001
0101
1001
,
1010
0110
1001
0101
,
1100
0000
1001
0000
0101
0000
0110
0101
,
1010
0101
1010
1001
,
1100
0110
1010
0011
,
1100
0110
1001
0000
0011
0000
1010
0101
,
0110
0000
1001
0000
0011
0000
0110
0000
1100
0011
1100
0011
1100
0011
1100
0011
,
1100
0011
1100
1001
,
1100
0011
0110
1010
,
1001
0110
0101
1001
,
0110
0000
1010
0000
1001
0000
0101
1010
,
1001
1100
1001
0110
,
1010
0011
0110
1001
,
1100
0110
0011
0000
1001
0000
1010
0101
,
0011
0000
1001
0000
1100
0000
0110
0000
1010
0101
1010
0101
1010
0101
1010
0101
,
1010
1010
1001
0101
,
1010
0011
1100
0011
,
1010
0011
0101
1100
,
0101
0000
1010
0000
0011
0000
1100
0110
,
1001
0110
0011
1001
,
1100
0101
1001
0110
,
1001
1100
0011
0000
0101
0000
1010
0101
,
1100
0000
0110
0000
0101
0000
1001
0000
0011
1100
0011
1100
0011
1100
0011
1100
,
0011
0011
0011
0011
,
0110
0110
0110
0110
,
1001
1001
1001
1001
,
1010
0000
1010
0000
1010
0000
1010
0101
,
0110
0110
0110
0110
,
1100
1100
1100
1100
,
0011
0011
0011
0011
,
0101
1010
0101
0000
0101
0000
0101
1100
,
0110
0110
0110
0110
,
1001
1001
1001
1001
,
0101
0101
0101
0101
,
0110
0000
0110
0000
0110
0000
0110
1100
,
0011
0011
0011
0011
,
1100
1100
1100
1100
,
1010
0101
1010
0000
1010
0000
1010
0110
,
1001
0000
0110
0000
1100
0000
0011
0000
1001
0110
1001
0110
1001
0110
1001
0110
,
0101
0101
0101
0101
,
1001
1001
1001
1001
,
0110
0110
0110
0110
,
0011
0000
0011
0000
0011
0000
0011
1100
,
1001
1001
1001
1001
,
1010
1010
1010
1010
,
0101
0101
0101
0101
,
1100
0011
1100
0000
1100
0000
1100
1010
,
1001
1001
1001
1001
,
0110
0110
0110
0110
,
1100
1100
1100
1100
,
1001
0000
1001
0000
1001
0000
1001
1010
,
0101
0101
0101
0101
,
1010
1010
1010
1010
,
0011
1100
0011
0000
0011
0000
0011
1001
,
0110
0000
1001
0000
1010
0000
0101
0000
1100
0011
1100
0011
1100
0011
1100
0011
,
2200
0000
0000
0000
,
3311
0110
1001
0110
1010
0011
1001
1010
,
1100
0110
1010
1001
,
0011
0110
1010
1100
,
1001
1100
0110
0101
,
1001
0000
0110
0000
0101
0000
1001
0110
,
1100
0101
0011
1100
,
1001
0101
0011
1100
,
0011
1100
1010
0000
1100
0000
1010
0101
,
1010
0000
1100
0000
0101
0000
1010
0000
0011
1100
0011
1100
0011
1100
0011
1100
,
0011
1100
0101
0110
,
1010
1100
1010
0110
,
1100
0011
0101
1001
,
1100
0000
0110
0000
0101
0000
0011
1100
,
0110
0101
1001
1100
,
1010
0011
0101
1001
,
1010
0110
1001
0000
1001
0000
0110
1100
,
0011
0000
0101
0000
0011
0000
1010
0000
1001
0110
1001
0110
1001
0110
1001
0110
,
1001
1001
0101
0110
,
0011
1100
1010
0101
,
1001
0011
1100
1010
,
1001
0000
0011
0000
0110
0000
0101
1100
,
0101
0011
1100
1010
,
1100
0011
1100
0101
,
0110
1100
0011
0000
0011
0000
0101
1010
,
0101
0000
0011
0000
0110
0000
1001
0000
1010
0101
1010
0101
1010
0101
1010
0101
,
1010
0011
1100
0011
,
1001
0101
0110
1010
,
1001
1010
0011
0110
,
1010
0000
0101
0000
1010
0000
1001
0101
,
0011
1001
0011
0110
,
0101
1010
0101
1010
,
1100
0110
0101
0000
0110
0000
1001
1100
,
0101
0000
0110
0000
1100
0000
0011
0000
1001
0110
1001
0110
1001
0110
1001
0110
,
1001
0000
0000
0000
,
0110
0000
0000
0000
,
1100
0000
0000
0000
,
0110
0000
0000
0011
0000
0000
1010
0000
,
0101
0000
0000
0000
,
1100
0000
0000
0000
,
0101
0000
0000
0000
,
1001
0000
0110
0000
,
1010
0000
0000
0101
0000
0000
1100
0000
,
1001
0000
0000
0011
0000
0000
0110
0000
,
1100
0000
0000
1010
0000
0000
0101
0000
,
0011
0000
0000
1010
0000
0000
0101
0000
,
0110
1100
0101
1001
,
0110
0101
0011
1010
,
1001
0110
1001
0000
0101
0000
0011
1100
,
0101
0000
0110
0000
1001
0000
1100
0000
0011
1100
0011
1100
0011
1100
0011
1100
,
0011
0011
0011
0011
,
0110
0110
0110
0110
,
1100
1100
1100
1100
,
1010
0000
1010
0000
1010
0000
1010
0110
,
1001
1001
1001
1001
,
0101
0101
0101
0101
,
0110
0110
0110
0110
,
1100
0011
1100
0000
1100
0000
1100
0110
,
0011
0011
0011
0011
,
0101
0101
0101
0101
,
1001
1001
1001
1001
,
0110
0000
0110
0000
0110
0000
0110
1100
,
0011
0011
0011
0011
,
1010
1010
1010
1010
,
0110
1001
0110
0000
0110
0000
0110
1100
,
0011
0000
0110
0000
1100
0000
0101
0000
1001
0110
1001
0110
1001
0110
1001
0110
,
1001
1001
1001
1001
,
0110
0110
0110
0110
,
1100
1100
1100
1100
,
0011
0000
0011
0000
0011
0000
0011
0110
,
1010
1010
1010
1010
,
0101
0101
0101
0101
,
0011
0011
0011
0011
,
1001
0110
1001
0000
1001
0000
1001
0101
,
1100
1100
1100
1100
,
0101
0101
0101
0101
,
0110
0110
0110
0110
,
1010
0000
1010
0000
1010
0000
1010
0101
,
0110
0110
0110
0110
,
1001
1001
1001
1001
,
0220
0000
0000
0000
,
1331
0000
0110
0000
1001
0000
0110
0000
1001
0110
1001
0110
1001
0110
1001
0110
,
1001
1100
0110
0011
,
0101
1001
1010
1100
,
0110
1001
0101
0110
,
1010
0000
0011
0000
1100
0000
1001
0110
,
1001
1100
0110
0011
,
1010
1001
0101
0110
,
1100
0011
1010
1001
,
0101
1010
0011
0000
0110
0000
1010
0101
,
1100
0101
1001
0110
,
1100
0101
1001
1100
,
0011
0101
1100
1001
,
0101
0000
1100
0000
0011
0000
1001
0110
,
1001
1100
0101
1001
,
0110
0011
1100
0101
,
1010
0101
1001
0000
1010
0000
1100
0110
,
0011
0000
1001
0000
1010
0000
1100
0000
0011
1100
0011
1100
0011
1100
0011
1100
,
0011
1010
0011
0101
,
1001
1100
1010
0011
,
0110
0101
0110
1010
,
0011
0000
0101
0000
1010
0000
1100
0101
,
0011
1001
0110
0101
,
1001
1100
0110
0101
,
1010
0101
0110
1010
,
0110
1100
0011
0000
0101
0000
1001
0110
,
0011
0011
1100
0101
,
0011
1001
0110
1100
,
1010
0110
1001
1010
,
0011
0101
0110
1010
,
0101
1010
1100
0000
0011
0000
1010
0000
,
0110
1100
1001
1010
,
0110
1100
0011
0000
1010
0000
0110
1001
,
0011
0000
1100
0000
1001
0000
0011
0000
0110
1001
0110
1001
0110
1001
0110
1001
,
0110
0000
0000
1100
0011
0000
0000
0110
,
1010
0000
0000
0011
1100
0000
1001
0000
,
0110
0000
0000
0101
1010
0000
0000
1100
,
0011
0000
0000
0000
0000
0000
0110
0000
1001
0000
0000
1100
0000
0000
0110
0000
,
0011
0000
0000
1100
0110
0000
0000
0101
,
1010
0000
0000
1100
0011
0000
0110
0000
,
1001
0000
0000
0101
0011
0000
0000
1100
,
0011
0110
1100
0110
,
1001
0000
0000
0101
1010
0000
0000
1100
,
0011
0000
0000
0110
1100
0000
0011
0000
,
1100
0000
0000
0110
1001
0000
0000
1100
,
0101
0000
0000
0000
0000
0000
0011
0000
1100
0000
0000
0110
0000
0000
1001
0000
,
0110
0000
0000
1100
0011
0000
0000
1010
,
0101
0000
0000
0101
1100
0000
0110
0000
,
0011
0000
0000
1100
0011
0000
0000
0011
,
1100
1001
0101
0110
,
2002
0000
0000
0000
,
3113
1001
0110
1001
0110
1001
0110
1001
,
0110
1100
0101
0011
,
1001
1100
1010
0101
,
1001
0011
0110
1010
,
0101
0000
0110
0000
1100
0000
0011
1100
,
0101
1001
1010
1100
,
0101
0011
1100
0110
,
1010
0101
1010
0000
0110
0000
1100
0110
,
0011
0000
1010
0000
1001
0000
0011
0000
1100
0011
1100
0011
1100
0011
1100
0011
,
1100
0110
0011
1100
,
1010
0101
0110
1001
,
1010
0101
0011
1001
,
0110
0000
0011
0000
0110
0000
1010
0110
,
0101
1001
0110
1100
,
0110
0011
0101
1001
,
0101
0110
1100
0000
1010
0000
0101
1010
,
1001
0000
0110
0000
1100
0000
0011
0000
0101
1010
0101
1010
0101
1010
0101
1010
,
0101
1001
1100
0011
,
0101
1001
0011
0110
,
1001
1100
1010
0011
,
1100
0000
1010
0000
0101
0000
0011
1100
,
0110
1010
1001
0110
,
0011
0110
1100
0101
,
0011
1100
0110
0000
0101
0000
1010
0110
,
0101
0000
1010
0000
0110
0000
0101
0000
1100
0011
1100
0011
1100
0011
1100
0011
,
1100
0011
1010
0110
,
1100
0011
1010
1001
,
1100
0101
0110
1001
,
0011
0000
1100
0000
0101
0000
1001
0110
,
1100
0011
0101
1100
,
1001
0101
0110
1100
,
0022
0000
0000
0000
,
1133
0011
1100
0110
,
0011
1100
0011
1100
0011
1100
0011
1100
,
0011
0110
1001
0101
,
1010
1100
0011
0110
,
0011
1010
1100
1001
,
0110
1010
1001
1100
,
0011
0101
0011
1010
,
1100
0101
0110
0011
,
0011
0110
1010
1001
,
0101
1010
0101
0000
1010
0000
0110
0000
,
1100
0101
1001
0110
,
0011
1100
1001
1100
,
0110
0011
1100
1001
,
0101
1100
1001
0011
,
0110
1001
0110
1100
,
0101
0011
0110
1010
,
0101
1100
1010
0110
,
0011
1100
0011
1100
0011
1100
0011
1100
,
0011
1010
0101
1100
,
0101
1010
0011
0110
,
1100
0011
1001
1100
,
0011
0110
1100
1001
,
1100
0101
1100
0011
,
0110
1010
0011
1100
,
0101
1010
1100
0110
,
1010
0101
1010
0000
0110
0000
0011
0000
,
1010
0110
1100
1001
,
0110
1010
0101
1010
,
0110
1010
1001
0101
,
1001
0110
1010
0000
,
1100
0011
1010
1100
,
0101
1001
1100
0011
,
1100
0110
0101
1010
,
1001
0110
1001
0110
1001
0110
1001
0110
,
1001
1010
1100
0011
,
0110
1001
0011
0110
,
1001
1010
0110
1001
,
0011
1001
0110
0011
,
0101
1100
0011
1010
,
0110
0011
1100
0110
,
0011
1001
1010
0110
,
1001
0110
1001
0000
0011
0000
1010
0000
,
1100
0110
0101
1100
,
1001
0101
1010
1001
,
0110
0101
1010
1001
,
0101
1010
0101
0000
0110
0000
1010
0000
,
1100
0110
1001
0101
,
0110
1100
1001
0101
,
0011
1010
0011
1100
,
1001
0110
1001
0110
1001
0110
1001
0110
,
1001
1100
0101
0011
,
1001
0101
1010
0101
,
1001
1100
0011
1010
,
1001
0011
1010
1100
,
0011
0110
1100
0101
,
0011
1100
0101
1010
,
1010
0110
0011
1001
,
0101
1010
0101
0000
0011
0000
0101
0000
,
0110
1001
1100
0011
,
0110
0011
1010
1001
,
1100
1010
1100
0011
,
0110
0101
1100
1001
,
0011
0101
0011
1010
,
1001
0110
1001
0000
1001
0000
0011
0000
,
1100
0101
0011
0101
,
1100
0011
1100
0011
1100
0011
1100
0011
,
1100
0000
0000
0000
,
0110
0000
0000
0000
,
0011
0000
0000
0000
,
1010
0000
0000
1100
0000
0000
0101
0000
,
1001
0000
0000
0000
,
0101
0000
0000
0000
,
1100
0000
0000
0000
,
0110
0000
0101
0000
,
1010
0000
0000
0110
0000
0000
0011
0000
,
1100
0000
0000
0110
0000
0000
1001
0000
,
1010
0000
0000
0011
0000
0000
1010
0000
,
0011
0000
0000
1100
0000
0000
0101
0000
,
1001
1100
0110
0101
,
0011
0110
1100
0101
,
1010
0101
1010
0000
0110
0000
0011
1100
,
0110
0000
1001
0000
0101
0000
0011
0000
1100
0011
1100
0011
1100
0011
1100
0011
,
1100
0110
0011
1010
,
0101
1001
1010
0101
,
0011
0110
0011
1001
,
0101
0000
1100
0000
1001
0000
0110
0011
,
1100
1010
1001
0101
,
0011
1001
1100
0011
,
1010
1001
1100
0110
,
1001
1100
0110
0000
0101
0000
1001
0110
,
1100
1010
0011
0101
,
1100
1001
0110
0101
,
1100
0011
1001
0101
,
0011
0000
1010
0000
1001
0000
0101
0011
,
1100
1001
0101
0011
,
1010
0110
0011
0110
,
0101
1010
1100
0000
0011
0000
1010
1100
,
0011
0000
1100
0000
0101
0000
0011
0000
1100
0011
1100
0011
1100
0011
1100
0011
,
1100
0011
0110
0101
,
0011
1100
0101
1001
,
0110
1010
0110
0011
,
0101
0000
1001
0000
1010
0000
0110
1100
,
0011
0110
1001
0011
,
1010
0011
1001
1100
,
1001
0110
1010
0011
,
0110
1100
1001
0000
0101
0000
1001
0011
,
0110
1010
1100
0110
,
0011
1100
1001
0101
,
0110
1010
1001
0110
,
1010
0000
1001
0000
1010
0000
0011
1100
,
1001
0011
0101
0110
,
1100
0011
1010
0011
,
2200
0000
0000
0000
,
3311
0000
1100
0000
0011
0000
1100
0000
0011
1100
0011
1100
0011
1100
0011
1100
,
0011
0000
0000
0000
;
